Os Simpsons, Temporadas Dual Áudio, Temporadas Dubladas, Temporadas Legendadas

Baixar – Os Simpsons 29ª Temporada – Dublado (Ep. 5 Adicionado)

Baixe ou assista online a vigésima oitava temporada de Os Simpsons.

Ano de Lançamento: 2017-2018
Número de Episódios: 22
Qualidade: WEB-DL 1080p
Qualidade do Áudio: 10
Qualidade de Vídeo: 10
Idioma do Áudio: Português/Inglês (Legendado)

1. Os Serfsons

MEGA MEGA Google Drive Google Drive

2. O Esplendor de Springfield

MEGA MEGA Google Drive Google Drive

3. O Pai de Whistler

MEGA MEGA Google Drive Google Drive

4. Casa na Árvore dos Horrores XXVIII

MEGA MEGA Google Drive Google Drive

5. Vovô, Está me Ouvindo? [NOVO]

MEGA MEGA Google Drive Google Drive

13 Comentários

  1. roberto

    Ep 2 Erro 404 🙁

    • Administrador

      Corrigido.

      • Roberto

        Muito obrigado meu amigo! Continuem com o ótimo trabalho!

  2. Marco Gossuke

    Muito Obrigado por continuar compartilhando essa maravilha chamada Simpsons!!

  3. Os Aquivos dentro do Rar estão em MP4 ou MKV?
    E qual o Codec do Áudio?

    • Administrador

      Mediainfo dos arquivos:

      Video
      ID : 1
      Format : AVC
      Format/Info : Advanced Video Codec
      Format profile : [email protected]
      Format settings : CABAC / 4 Ref Frames
      Format settings, CABAC : Yes
      Format settings, ReFrames : 4 frames
      Codec ID : avc1
      Codec ID/Info : Advanced Video Coding
      Duration : 21 min 5 s
      Bit rate : 1 420 kb/s
      Width : 1 920 pixels
      Height : 1 080 pixels
      Display aspect ratio : 16:9
      Frame rate mode : Variable
      Frame rate : 23.976 FPS
      Minimum frame rate : 23.000 FPS
      Maximum frame rate : 23.981 FPS
      Color space : YUV
      Chroma subsampling : 4:2:0
      Bit depth : 8 bits
      Scan type : Progressive
      Bits/(Pixel*Frame) : 0.029
      Stream size : 214 MiB (69%)
      Writing library : x264 core 148 r2708 86b7198
      Encoded date : UTC 2018-05-29 04:15:38
      Tagged date : UTC 2018-05-29 04:15:51
      Color range : Limited
      Color primaries : BT.709
      Transfer characteristics : BT.709
      Matrix coefficients : BT.709

      Audio #1
      ID : 2
      Format : MPEG Audio
      Format version : Version 1
      Format profile : Layer 3
      Codec ID : mp4a-69
      Duration : 21 min 5 s
      Bit rate mode : Constant
      Bit rate : 320 kb/s
      Channel(s) : 2 channels
      Sampling rate : 48.0 kHz
      Compression mode : Lossy
      Stream size : 48.3 MiB (16%)
      Title : Stereo
      Encoded date : UTC 2018-05-29 04:15:38
      Tagged date : UTC 2018-05-29 04:15:51

      Audio #2
      ID : 3
      Format : MPEG Audio
      Format version : Version 1
      Format profile : Layer 3
      Format settings : Joint stereo / MS Stereo
      Codec ID : mp4a-69
      Duration : 21 min 5 s
      Bit rate mode : Constant
      Bit rate : 320 kb/s
      Channel(s) : 2 channels
      Sampling rate : 48.0 kHz
      Frame rate : 41.667 FPS (1152 SPF)
      Compression mode : Lossy
      Stream size : 48.3 MiB (16%)
      Title : Stereo
      Writing library : LAME3.99.5
      Encoded date : UTC 2018-05-29 04:15:38
      Tagged date : UTC 2018-05-29 04:15:51

      • Muito Obrigado pela resposta,e muito obrigado pelos em episódios em qualidade sempre excelente!

  4. Nelson

    Obrigado por postar!

  5. Sheila Freire

    Aeeeee amem 29° temporada

    Vlw!!

  6. Anderson

    Tentando baixar o ep4 e gera erro ao extrair o arquivo!

    • Administrador

      Você baixou de qual servidor?

      Você pode resolver isso marcando a caixa “Manter arquivos inativos” quando for extrair:

      • Anderson

        Baixei dos dois! Estou baixando pelo smartphone!

        • Administrador

          Acabei de baixar e os arquivos estão ok.

Deixe uma resposta

O seu endereço de e-mail não será publicado. Campos obrigatórios são marcados com *